Afro Samurai (2007) [1080p x265 HEVC 10bit BluRay AAC 5.1] [Prof]

Category:
Date:
2020-01-23 02:28 UTC
Submitter:
Seeders:
9
Information:
No information.
Leechers:
1
File size:
3.1 GiB
Completed:
358
Info hash:
602dff9128b6d91b9488d5c4abc1b57a1d24b400
[![12746l.jpg](https://i.postimg.cc/VLtSygjY/12746l.jpg)](https://postimg.cc/7fxP0gsc) Synopsis When he was a young boy, Afro witnessed his father be cut down in a duel at the hands of a man known only as Justice. After taking the life of Afro's father, Justice cast aside his Number Two headband and took the Number One to claim its godly powers as his own. Years later, having obtained the Number Two headband which grants him the right to challenge the Number One, Afro moves forward in his hunt for revenge on the man who murdered his father. There is just one thing that stands in his way—everyone else in the world! Though the Number One can only be challenged by the Number Two, the Number Two can be challenged by anyone. As his enemies gather to try and take the title of Number Two, Afro must fight through a myriad of foes and obstacles if he hopes to reach the Number One and claim vengeance once and for all. Alternative Titles English: Afro Samurai Japanese: アフロサムライ Information Type: TV Episodes: 5 Status: Finished Airing Aired: May 3, 2007 to May 4, 2007 Premiered: Spring 2007 Broadcast: Unknown Producers: Dentsu, Victor Entertainment, Pony Canyon, Fuji TV Licensors: Funimation Studios: Gonzo Source: Original Genres: Action, Adventure, Samurai Duration: 27 min. per ep. Rating: R+ - Mild Nudity [![Prof-S01-E01-Revenge-mkv-snapshot-18-26-2020-01-21-01-12-48.png](https://i.postimg.cc/6pDYWYPY/Prof-S01-E01-Revenge-mkv-snapshot-18-26-2020-01-21-01-12-48.png)](https://postimg.cc/TKJrQqfD) [![Prof-S01-E02-The-Dream-Reader-mkv-snapshot-05-55-2020-01-21.png](https://i.postimg.cc/d3HjzBdR/Prof-S01-E02-The-Dream-Reader-mkv-snapshot-05-55-2020-01-21.png)](https://postimg.cc/fSdddY8k) [![Prof-S01-E03-The-Empty-Seven-Clan-mkv-snapshot-16-43-2020-01.png](https://i.postimg.cc/NFSr6Pmn/Prof-S01-E03-The-Empty-Seven-Clan-mkv-snapshot-16-43-2020-01.png)](https://postimg.cc/m13DRjd3) Format : Matroska Format version : Version 4 File size : 506 MiB Duration : 26 min 15 s Overall bit rate : 2 692 kb/s Encoded date : UTC 2020-01-19 01:00:42 Writing application : mkvmerge v28.2.0 ('The Awakening') 64-bit Writing library : libebml v1.3.6 + libmatroska v1.4.9 Writing frontend : StaxRip v2.0.0.0 Video ID : 1 Format : HEVC Format/Info : High Efficiency Video Coding Format profile : Main [email protected]@Main Codec ID : V_MPEGH/ISO/HEVC Duration : 26 min 15 s Bit rate : 1 940 kb/s Width : 1 920 pixels Height : 1 080 pixels Display aspect ratio : 16:9 Frame rate mode : Constant Frame rate : 23.976 (24000/1001) FPS Color space : YUV Chroma subsampling : 4:2:0 Bit depth : 10 bits Bits/(Pixel*Frame) : 0.039 Stream size : 364 MiB (72%) Writing library : x265 3.2.1+3-b4b2ecac21f6:[Windows][MSVC 1924][64 bit] 10bit Encoding settings : cpuid=1111039 / frame-threads=2 / numa-pools=4 / wpp / no-pmode / no-pme / no-psnr / no-ssim / log-level=2 / input-csp=1 / input-res=1920x1080 / interlace=0 / total-frames=37778 / level-idc=0 / high-tier=1 / uhd-bd=0 / ref=4 / no-allow-non-conformance / no-repeat-headers / annexb / no-aud / no-hrd / info / hash=0 / no-temporal-layers / open-gop / min-keyint=23 / keyint=250 / gop-lookahead=0 / bframes=8 / b-adapt=2 / b-pyramid / bframe-bias=0 / rc-lookahead=80 / lookahead-slices=6 / scenecut=40 / radl=0 / no-splice / no-intra-refresh / ctu=64 / min-cu-size=8 / rect / no-amp / max-tu-size=32 / tu-inter-depth=1 / tu-intra-depth=1 / limit-tu=0 / rdoq-level=2 / dynamic-rd=0.00 / no-ssim-rd / signhide / no-tskip / nr-intra=0 / nr-inter=0 / no-constrained-intra / strong-intra-smoothing / max-merge=3 / limit-refs=3 / limit-modes / me=3 / subme=3 / merange=57 / temporal-mvp / no-hme / weightp / no-weightb / no-analyze-src-pics / deblock=0:0 / sao / no-sao-non-deblock / rd=4 / selective-sao=4 / no-early-skip / rskip / no-fast-intra / no-tskip-fast / no-cu-lossless / no-b-intra / no-splitrd-skip / rdpenalty=0 / psy-rd=2.00 / psy-rdoq=1.00 / no-rd-refine / no-lossless / cbqpoffs=0 / crqpoffs=0 / rc=crf / crf=19.0 / qcomp=0.60 / qpstep=4 / stats-write=0 / stats-read=0 / ipratio=1.40 / pbratio=1.30 / aq-mode=2 / aq-strength=1.00 / cutree / zone-count=0 / no-strict-cbr / qg-size=32 / no-rc-grain / qpmax=69 / qpmin=0 / no-const-vbv / sar=0 / overscan=0 / videoformat=5 / range=0 / colorprim=2 / transfer=2 / colormatrix=2 / chromaloc=0 / display-window=0 / cll=0,0 / min-luma=0 / max-luma=1023 / log2-max-poc-lsb=8 / vui-timing-info / vui-hrd-info / slices=1 / no-opt-qp-pps / no-opt-ref-list-length-pps / no-multi-pass-opt-rps / scenecut-bias=0.00 / no-opt-cu-delta-qp / no-aq-motion / no-hdr / no-hdr-opt / no-dhdr10-opt / no-idr-recovery-sei / analysis-reuse-level=5 / scale-factor=0 / refine-intra=0 / refine-inter=0 / refine-mv=1 / refine-ctu-distortion=0 / no-limit-sao / ctu-info=0 / no-lowpass-dct / refine-analysis-type=0 / copy-pic=1 / max-ausize-factor=1.0 / no-dynamic-refine / no-single-sei / no-hevc-aq / no-svt / no-field / qp-adaptation-range=1.00 Default : Yes Forced : No Audio ID : 2 Format : AAC LC Format/Info : Advanced Audio Codec Low Complexity Codec ID : A_AAC-2 Duration : 26 min 15 s Bit rate : 750 kb/s Channel(s) : 6 channels Channel layout : C L R Ls Rs LFE Sampling rate : 48.0 kHz Frame rate : 46.875 FPS (1024 SPF) Compression mode : Lossy Delay relative to video : 20 ms Stream size : 141 MiB (28%) Language : English Default : No Forced : No Menu 00:00:00.000 : en:00:00:00.000 00:04:38.361 : en:00:04:38.361 00:09:35.408 : en:00:09:35.408 00:14:46.719 : en:00:14:46.719 00:19:30.461 : en:00:19:30.461 00:24:29.468 : en:00:24:29.468 Source: [![71-N6jl3-ZWUL-SY445.jpg](https://i.postimg.cc/BvzPDnDg/71-N6jl3-ZWUL-SY445.jpg)](https://postimg.cc/cKQJGZFg)

File list

x
 Your IP: Location: ~ Hide your IP with a VPN when torrenting!   HIDE ME NOW!