Aldnoah.Zero (2014) [1080p x265 HEVC 10bit BluRay Dual Audio AAC] [Prof]

Category:
Date:
2019-10-18 02:21 UTC
Submitter:
Seeders:
11
Information:
No information.
Leechers:
0
File size:
5.0 GiB
Completed:
472
Info hash:
931d87b0834f790ef1962b0a935cf1eb0e714d88
[![65759l.jpg](https://i.postimg.cc/HW9xrkLr/65759l.jpg)](https://postimg.cc/F11mqm3v) Synopsis The discovery of a hypergate on the Moon once allowed the human race to teleport to Mars. Those who chose to settle there unearthed a technology far more advanced than that of their home planet, which they named "Aldnoah." This discovery led to the founding of the Vers Empire of Mars and a declaration of war against the "Terrans," those who stayed behind on Earth. However, a battle on the moon—later called "Heaven's Fall"—caused the hypergate to explode, destroying the moon and leading the two planets to establish an uneasy ceasefire. Their peace was a fragile one, however. Fifteen years later, high school student Inaho Kaizuka witnesses the plotted assassination of the Vers Empire's Princess Asseylum Vers Allusia, who had come to Earth in hopes of repairing the relationship between the empire and its homeland. The ceasefire is shattered, and the Martians declare war on the Terrans once again. In the face of this insurmountable enemy, Inaho and his friends must now fight against the Vers Empire to settle the war once and for all. [Written by MAL Rewrite] Alternative Titles English: Aldnoah.Zero Synonyms: AZ Japanese: アルドノア・ゼロ Information Type: TV Episodes: 12 Status: Finished Airing Aired: Jul 6, 2014 to Sep 21, 2014 Premiered: Summer 2014 Broadcast: Sundays at 00:00 (JST) Producers: Aniplex, Movic, Nitroplus, Houbunsha, MAGES., Tokyo MX, Asahi Broadcasting, BS11 Licensors: Aniplex of America Studios: A-1 Pictures, TROYCA Source: Original Genres: Action, Military, Sci-Fi, Mecha Duration: 23 min. per ep. Rating: R - 17+ (violence & profanity) [![Prof-Episode-01-Princess-of-Vers-mkv-snapshot-15-52-2019-10.png](https://i.postimg.cc/hPCt0ZTg/Prof-Episode-01-Princess-of-Vers-mkv-snapshot-15-52-2019-10.png)](https://postimg.cc/tYxbq5Bm) [![Prof-Episode-03-The-Children-s-Echelon-mkv-snapshot-08-45-2.png](https://i.postimg.cc/T3pYNjJb/Prof-Episode-03-The-Children-s-Echelon-mkv-snapshot-08-45-2.png)](https://postimg.cc/21NDVZJj) [![Prof-Episode-07-The-Boys-of-Earth-mkv-snapshot-06-46-2019-1.png](https://i.postimg.cc/SN5psBcX/Prof-Episode-07-The-Boys-of-Earth-mkv-snapshot-06-46-2019-1.png)](https://postimg.cc/LnzWQ0CR) Format : Matroska Format version : Version 4 File size : 359 MiB Duration : 23 min 41 s Overall bit rate : 2 122 kb/s Encoded date : UTC 2019-10-13 21:25:36 Writing application : mkvmerge v35.0.0 ('All The Love In The World') 64-bit Writing library : libebml v1.3.9 + libmatroska v1.5.2 Video ID : 1 Format : HEVC Format/Info : High Efficiency Video Coding Format profile : Main [email protected]@Main Codec ID : V_MPEGH/ISO/HEVC Duration : 23 min 40 s Bit rate : 1 569 kb/s Width : 1 920 pixels Height : 1 080 pixels Display aspect ratio : 16:9 Frame rate mode : Constant Frame rate : 23.976 (24000/1001) FPS Color space : YUV Chroma subsampling : 4:2:0 Bit depth : 10 bits Bits/(Pixel*Frame) : 0.032 Stream size : 266 MiB (74%) Writing library : x265 3.1+19-c4b098f973e6:[Windows][MSVC 1922][64 bit] 10bit Encoding settings : cpuid=1111039 / frame-threads=2 / numa-pools=4 / wpp / no-pmode / no-pme / no-psnr / no-ssim / log-level=2 / input-csp=1 / input-res=1920x1080 / interlace=0 / total-frames=34047 / level-idc=0 / high-tier=1 / uhd-bd=0 / ref=4 / no-allow-non-conformance / no-repeat-headers / annexb / no-aud / no-hrd / info / hash=0 / no-temporal-layers / open-gop / min-keyint=23 / keyint=250 / gop-lookahead=0 / bframes=8 / b-adapt=2 / b-pyramid / bframe-bias=0 / rc-lookahead=80 / lookahead-slices=6 / scenecut=40 / radl=0 / no-splice / no-intra-refresh / ctu=64 / min-cu-size=8 / rect / no-amp / max-tu-size=32 / tu-inter-depth=1 / tu-intra-depth=1 / limit-tu=0 / rdoq-level=2 / dynamic-rd=0.00 / no-ssim-rd / signhide / no-tskip / nr-intra=0 / nr-inter=0 / no-constrained-intra / strong-intra-smoothing / max-merge=3 / limit-refs=3 / limit-modes / me=3 / subme=3 / merange=57 / temporal-mvp / no-hme / weightp / no-weightb / no-analyze-src-pics / deblock=0:0 / sao / no-sao-non-deblock / rd=4selective-sao=4 / no-early-skip / rskip / no-fast-intra / no-tskip-fast / no-cu-lossless / no-b-intra / no-splitrd-skip / rdpenalty=0 / psy-rd=2.00 / psy-rdoq=1.00 / no-rd-refine / no-lossless / cbqpoffs=0 / crqpoffs=0 / rc=crf / crf=19.0 / qcomp=0.60 / qpstep=4 / stats-write=0 / stats-read=0 / ipratio=1.40 / pbratio=1.30 / aq-mode=2 / aq-strength=1.00 / cutree / zone-count=0 / no-strict-cbr / qg-size=32 / no-rc-grain / qpmax=69 / qpmin=0 / no-const-vbv / sar=0 / overscan=0 / videoformat=5 / range=0 / colorprim=2 / transfer=2 / colormatrix=2 / chromaloc=0 / display-window=0cll=0,0 / min-luma=0 / max-luma=1023 / log2-max-poc-lsb=8 / vui-timing-info / vui-hrd-info / slices=1 / no-opt-qp-pps / no-opt-ref-list-length-pps / no-multi-pass-opt-rps / scenecut-bias=0.00 / no-opt-cu-delta-qp / no-aq-motion / no-hdr / no-hdr-opt / no-dhdr10-opt / no-idr-recovery-sei / analysis-reuse-level=5 / scale-factor=0 / refine-intra=0 / refine-inter=0 / refine-mv=0 / refine-ctu-distortion=0 / no-limit-sao / ctu-info=0 / no-lowpass-dct / refine-analysis-type=0 / copy-pic=1 / max-ausize-factor=1.0 / no-dynamic-refine / no-single-sei / no-hevc-aq / no-svt / no-field / qp-adaptation-range=1.00 Default : Yes Forced : No Audio #1 ID : 2 Format : AAC LC Format/Info : Advanced Audio Codec Low Complexity Codec ID : A_AAC-2 Duration : 23 min 41 s Bit rate : 288 kb/s Channel(s) : 2 channels Channel layout : L R Sampling rate : 48.0 kHz Frame rate : 46.875 FPS (1024 SPF) Compression mode : Lossy Delay relative to video : 20 ms Stream size : 47.8 MiB (13%) Language : English Default : Yes Forced : No Audio #2 ID : 3 Format : AAC LC Format/Info : Advanced Audio Codec Low Complexity Codec ID : A_AAC-2 Duration : 23 min 39 s Bit rate : 265 kb/s Channel(s) : 2 channels Channel layout : L R Sampling rate : 48.0 kHz Frame rate : 46.875 FPS (1024 SPF) Compression mode : Lossy Delay relative to video : 20 ms Stream size : 45.0 MiB (13%) Language : Japanese Default : No Forced : No Text #1 ID : 4 Format : ASS Codec ID : S_TEXT/ASS Codec ID/Info : Advanced Sub Station Alpha Duration : 19 min 49 s Bit rate : 269 b/s Count of elements : 208 Compression mode : Lossless Stream size : 39.2 KiB (0%) Title : Signs/Songs Language : English Default : Yes Forced : No Text #2 ID : 5 Format : ASS Codec ID : S_TEXT/ASS Codec ID/Info : Advanced Sub Station Alpha Duration : 23 min 36 s Bit rate : 332 b/s Count of elements : 512 Compression mode : Lossless Stream size : 57.5 KiB (0%) Title : Full Subtitles [Vivid-Watashi] Language : English Default : No Forced : No Menu 00:00:00.000 : en:Prologue 00:02:33.362 : en:Part A 00:09:55.011 : en:Eyecatch 00:09:58.014 : en:Part B 00:22:10.037 : en:Ending Source: Aldnoah_Zero_(BD_1080p_Hi10_FLAC)_[Dual-Audio]_[Kametsu]

File list

  • Aldnoah.Zero (2014) [1080p x265 HEVC 10bit BluRay Dual Audio AAC] [Prof]
    • [Prof] Episode 01 - Princess of Vers.mkv (359.5 MiB)
    • [Prof] Episode 02 - Beyond the Horizon.mkv (436.4 MiB)
    • [Prof] Episode 03 - The Children`s Echelon.mkv (467.9 MiB)
    • [Prof] Episode 04 - Point of No Return.mkv (380.4 MiB)
    • [Prof] Episode 05 - Phantom of the Emperor.mkv (391.0 MiB)
    • [Prof] Episode 06 - Steel Step Suite.mkv (407.0 MiB)
    • [Prof] Episode 07 - The Boys of Earth.mkv (444.9 MiB)
    • [Prof] Episode 08 - Then and Now.mkv (374.0 MiB)
    • [Prof] Episode 09 - Darkness Visible.mkv (370.1 MiB)
    • [Prof] Episode 10 - Before the War.mkv (335.1 MiB)
    • [Prof] Episode 11 - Wind, Snow and Stars.mkv (550.4 MiB)
    • [Prof] Episode 12 - Childhood`s End.mkv (559.4 MiB)