[NSBC] Keiji 7-nin Season 5 E09 [WEBDL] [1080p]

Category:
Date:
2019-09-11 22:56 UTC
Submitter:
Seeders:
12
Information:
TlNCQy50bw==
Leechers:
7
File size:
702.6 MiB
Completed:
446
Info hash:
d6a73f870e88dd7cb7980a97cbeb783be1ed603c
![Poster](http://img.topddl.net/images/61af0e0dce728ebc52739711d1aa6e40.jpg "") ![Thumbnails](http://img.topddl.net/images/6216b40fa99e577935ec37c56c1bdd47.png "") ``` General Unique ID : 100643360295273725122637202154780009786 (0x4BB734C4E987958D7684AC591F8EA53A) Complete name : [NSBC] Keiji 7-nin Season 5 E09 [WEBDL] [1080p].mkv Format : Matroska Format version : Version 4 File size : 703 MiB Duration : 44 min 43 s Overall bit rate : 2 197 kb/s Movie name : [NSBC] Keiji 7-nin Season 5 E09 [WEBDL] [1080p] Encoded by : NoNe | NSBC Encoded date : UTC 2019-09-11 22:35:37 Writing application : mkvmerge v37.0.0 ('Leave It') 64-bit Writing library : libebml v1.3.9 + libmatroska v1.5.2 Copyright : NSBC Comment : NoNe | NSBC DATE_RECORDED : 2019 Video ID : 1 Format : AVC Format/Info : Advanced Video Codec Format profile : [email protected] Format settings : CABAC / 4 Ref Frames Format settings, CABAC : Yes Format settings, Reference frames : 4 frames Codec ID : V_MPEG4/ISO/AVC Duration : 44 min 42 s Bit rate : 2 130 kb/s Width : 1 920 pixels Height : 1 080 pixels Display aspect ratio : 16:9 Frame rate mode : Constant Frame rate : 29.970 (30000/1001) FPS Color space : YUV Chroma subsampling : 4:2:0 Bit depth : 8 bits Scan type : Progressive Bits/(Pixel*Frame) : 0.034 Stream size : 681 MiB (97%) Title : [NSBC] Writing library : Zencoder Video Encoding System Default : Yes Forced : No Color range : Limited Matrix coefficients : BT.709 Audio ID : 2 Format : AAC LC Format/Info : Advanced Audio Codec Low Complexity Codec ID : A_AAC-2 Duration : 44 min 43 s Bit rate : 63.9 kb/s Channel(s) : 2 channels Channel layout : L R Sampling rate : 48.0 kHz Frame rate : 46.875 FPS (1024 SPF) Compression mode : Lossy Delay relative to video : -67 ms Stream size : 20.4 MiB (3%) Title : [NSBC] Language : Japanese Default : Yes Forced : No ```

File list

  • [NSBC] Keiji 7-nin Season 5 E09 [WEBDL] [1080p].mkv (702.6 MiB)