[NSBC] Kansatsui Asagao E09 [WEBDL] [720p]

Category:
Date:
2019-09-09 13:30 UTC
Submitter:
Seeders:
12
Information:
TlNCQy50bw==
Leechers:
4
File size:
707.1 MiB
Completed:
665
Info hash:
fcf557029a67dad6cfc417035374ff5952edf8ab
![POSTER](http://img.topddl.net/images/03d2e2b22c04b33dd556ba8888eb9f1b.jpg "") ![Thumbnails](http://img.topddl.net/images/9c03716d229f967fe14b11d8276f249e.png "") ``` General Unique ID : 76090920597685884481775269990186672107 (0x393E9408075599C1569F48BFEA7CDFEB) Complete name : [NSBC] Kansatsui Asagao E09 [WEBDL] [720p].mkv Format : Matroska Format version : Version 4 File size : 707 MiB Duration : 46 min 20 s Overall bit rate mode : Variable Overall bit rate : 2 133 kb/s Movie name : [NSBC] Kansatsui Asagao E09 [WEBDL] [720p] Encoded by : NoNe | NSBC Encoded date : UTC 2019-09-09 13:25:42 Writing application : mkvmerge v37.0.0 ('Leave It') 64-bit Writing library : libebml v1.3.9 + libmatroska v1.5.2 Copyright : NSBC Comment : NoNe | NSBC DATE_RECORDED : 2019 Video ID : 1 Format : AVC Format/Info : Advanced Video Codec Format profile : [email protected] Format settings : CABAC / 4 Ref Frames Format settings, CABAC : Yes Format settings, Reference frames : 4 frames Codec ID : V_MPEG4/ISO/AVC Duration : 46 min 19 s Bit rate mode : Variable Bit rate : 2 003 kb/s Maximum bit rate : 6 000 kb/s Width : 1 280 pixels Height : 720 pixels Display aspect ratio : 16:9 Frame rate mode : Constant Frame rate : 29.970 (30000/1001) FPS Color space : YUV Chroma subsampling : 4:2:0 Bit depth : 8 bits Scan type : Progressive Bits/(Pixel*Frame) : 0.073 Stream size : 664 MiB (94%) Title : [NSBC] Default : Yes Forced : No Color range : Limited Color primaries : BT.709 Transfer characteristics : BT.709 Matrix coefficients : BT.709 Audio ID : 2 Format : AAC LC Format/Info : Advanced Audio Codec Low Complexity Codec ID : A_AAC-2 Duration : 46 min 19 s Bit rate : 128 kb/s Channel(s) : 2 channels Channel layout : L R Sampling rate : 48.0 kHz Frame rate : 46.875 FPS (1024 SPF) Compression mode : Lossy Delay relative to video : -67 ms Stream size : 42.4 MiB (6%) Title : [NSBC] Language : Japanese Default : Yes Forced : No ```

File list

  • [NSBC] Kansatsui Asagao E09 [WEBDL] [720p].mkv (707.1 MiB)