[NSBC] Bishonure Tantei Mizuno Hagoromo E09 [WEBDL] [720p]

Category:
Date:
2019-09-02 09:05 UTC
Submitter:
Seeders:
3
Information:
TlNCQy50bw==
Leechers:
5
File size:
569.8 MiB
Completed:
554
Info hash:
ca60ae4285a5ef67b49b284c8657b15e14da737c
![Poster](http://img.topddl.net/images/1736f4a53ecd095ab310ccc3bac3490d.jpg "") ![Thumbnails](http://img.topddl.net/images/51851229bab06e44da00dc8b901fb795.png "") ``` General Unique ID : 303295233453814709698981802085593760231 (0xE42C898695E3FBA9D120B8AA3555C1E7) Complete name : [NSBC] Watashi Danna o Shea Shiteta E09 [WEBDL] [1080p].mkv Format : Matroska Format version : Version 4 File size : 587 MiB Duration : 43 min 22 s Overall bit rate : 1 893 kb/s Movie name : [NSBC] Watashi Danna o Shea Shiteta E09 [WEBDL] [1080p] Encoded by : NoNe | NSBC Encoded date : UTC 2019-09-02 08:09:34 Writing application : mkvmerge v37.0.0 ('Leave It') 64-bit Writing library : libebml v1.3.9 + libmatroska v1.5.2 Copyright : NSBC Comment : NoNe | NSBC DATE_RECORDED : 2019 Video ID : 1 Format : AVC Format/Info : Advanced Video Codec Format profile : [email protected] Format settings : CABAC / 4 Ref Frames Format settings, CABAC : Yes Format settings, Reference frames : 4 frames Codec ID : V_MPEG4/ISO/AVC Duration : 43 min 21 s Bit rate : 1 826 kb/s Width : 1 920 pixels Height : 1 080 pixels Display aspect ratio : 16:9 Frame rate mode : Constant Frame rate : 29.970 (30000/1001) FPS Color space : YUV Chroma subsampling : 4:2:0 Bit depth : 8 bits Scan type : Progressive Bits/(Pixel*Frame) : 0.029 Stream size : 567 MiB (96%) Title : [NSBC] Writing library : Zencoder Video Encoding System Default : Yes Forced : No Audio ID : 2 Format : AAC LC Format/Info : Advanced Audio Codec Low Complexity Codec ID : A_AAC-2 Duration : 43 min 22 s Bit rate : 63.9 kb/s Channel(s) : 2 channels Channel layout : L R Sampling rate : 48.0 kHz Frame rate : 46.875 FPS (1024 SPF) Compression mode : Lossy Delay relative to video : -67 ms Stream size : 19.8 MiB (3%) Title : [NSBC] Language : Japanese Default : Yes Forced : No ```

File list

  • [NSBC] Bishonure Tantei Mizuno Hagoromo E09 [WEBDL] [720p].mkv (569.8 MiB)