Paprika (2006) [1080p x265 HEVC 10bit BD Dual Audio AAC 5.1] [Prof]

Category:
Date:
2019-08-13 02:24 UTC
Submitter:
Seeders:
20
Information:
No information.
Leechers:
1
File size:
1.7 GiB
Completed:
247
Info hash:
fe8957ca0d2952ff9b24492305a0dd71f01abdaf
[![93629l.jpg](https://i.postimg.cc/jjgGFDqf/93629l.jpg)](https://postimg.cc/3yGSyJvr) Synopsis The world of dreams can be an incredible window into the psyche, showing one's deepest desires, aspirations, and repressed memories. One hopeful tech lab has been developing the "DC Mini," a device with the power to delve into the dreams of others. Atsuko Chiba and Kosaku Tokita have been tirelessly working to develop this technology with the hopes of using it to deeply explore patients' minds and help cure them of their psychological disorders. However, having access to the deepest corners of a person's mind comes with a tremendous responsibility. In the wrong hands, the DC Mini could be used as a form of psychological terrorism and cause mental breakdowns in the minds of targets. When this technology is stolen and people around them start acting strangely, Atsuko and Kosaku know they have a serious problem on their hands. Enlisting the help of Officer Konakawa, who has been receiving this experimental therapy, they search both the real and dream worlds for their mental terrorist. [Written by MAL Rewrite] Alternative Titles English: Paprika Japanese: パプăƒȘă‚« Information Type: Movie Episodes: 1 Status: Finished Airing Aired: Nov 25, 2006 Producers: Sony Pictures Entertainment, Cyclone Graphics Licensors: None found, add some Studios: Madhouse Source: Novel Genres: Dementia, Fantasy, Horror, Mystery, Psychological, Sci-Fi, Thriller Duration: 1 hr. 30 min. Rating: R+ - Mild Nudity [![Paprika-2006-1080p-x265-HEVC-10bit-BD-Dual-Audio-AAC-5-1-Pr.png](https://i.postimg.cc/Y0m889jt/Paprika-2006-1080p-x265-HEVC-10bit-BD-Dual-Audio-AAC-5-1-Pr.png)](https://postimg.cc/V0mjkzjh) [![Paprika-2006-1080p-x265-HEVC-10bit-BD-Dual-Audio-AAC-5-1-Pr.png](https://i.postimg.cc/RC6z2LHZ/Paprika-2006-1080p-x265-HEVC-10bit-BD-Dual-Audio-AAC-5-1-Pr.png)](https://postimg.cc/Sjh5M8dB) [![Paprika-2006-1080p-x265-HEVC-10bit-BD-Dual-Audio-AAC-5-1-Pr.png](https://i.postimg.cc/Y25w7L6f/Paprika-2006-1080p-x265-HEVC-10bit-BD-Dual-Audio-AAC-5-1-Pr.png)](https://postimg.cc/ThJsqwHp) Format : Matroska Format version : Version 4 File size : 1.68 GiB Duration : 1 h 30 min Overall bit rate : 2 651 kb/s Video ID : 1 Format : HEVC Format/Info : High Efficiency Video Coding Format profile : Main [email protected]@Main Codec ID : V_MPEGH/ISO/HEVC Duration : 1 h 30 min Bit rate : 1 389 kb/s Width : 1 920 pixels Height : 1 080 pixels Display aspect ratio : 16:9 Frame rate mode : Constant Frame rate : 23.976 (24000/1001) FPS Color space : YUV Chroma subsampling : 4:2:0 Bit depth : 10 bits Bits/(Pixel*Frame) : 0.028 Stream size : 900 MiB (52%) Writing library : x265 3.1+10-459d3822c608:[Windows][MSVC 1922][64 bit] 10bit Language : English Default : Yes Forced : No Audio #1 ID : 13 Format : AAC LC Format/Info : Advanced Audio Codec Low Complexity Codec ID : A_AAC-2 Duration : 1 h 30 min Bit rate : 636 kb/s Channel(s) : 6 channels Channel layout : C L R Ls Rs LFE Sampling rate : 48.0 kHz Frame rate : 46.875 FPS (1024 SPF) Compression mode : Lossy Delay relative to video : 5 ms Stream size : 412 MiB (24%) Language : Japanese Default : No Forced : No Audio #2 ID : 14 Format : AAC LC Format/Info : Advanced Audio Codec Low Complexity Codec ID : A_AAC-2 Duration : 1 h 30 min Bit rate : 473 kb/s Channel(s) : 6 channels Channel layout : C L R Ls Rs LFE Sampling rate : 48.0 kHz Frame rate : 46.875 FPS (1024 SPF) Compression mode : Lossy Delay relative to video : 15 ms Stream size : 306 MiB (18%) Language : English Default : Yes Forced : No Text #1 ID : 2 Format : PGS Muxing mode : zlib Codec ID : S_HDMV/PGS Codec ID/Info : Picture based subtitle format used on BDs/HD-DVDs Duration : 1 h 24 min Bit rate : 25.3 kb/s Count of elements : 1618 Stream size : 15.4 MiB (1%) Language : English Default : No Forced : No Text #2 ID : 3 Format : PGS Muxing mode : zlib Codec ID : S_HDMV/PGS Codec ID/Info : Picture based subtitle format used on BDs/HD-DVDs Duration : 1 h 25 min Bit rate : 32.6 kb/s Count of elements : 2012 Stream size : 19.9 MiB (1%) Language : English Default : No Forced : No Source: [![61-P2w-QUKb-KL-SX342.jpg](https://i.postimg.cc/Sxr0cZwD/61-P2w-QUKb-KL-SX342.jpg)](https://postimg.cc/xXcF2Pjz)

File list

  • Paprika (2006) [1080p x265 HEVC 10bit BD Dual Audio AAC 5.1] [Prof].mkv (1.7 GiB)
Thank you very much. Nice description 👌
Sankyuu!!! I should finally watch this honestly.
@Prof Bro can yo kindly seed your D-frag torrent on 1337x or upload that in nyaa? Please I beg of you bro
what is the deal with the black lines man?

Prof (uploader)

User
@tsuna69 that's how it was on the bluray