[NSBC] Lupin no Musume E01 [WEBDL] [720p]

Category:
Date:
2019-07-11 15:13 UTC
Submitter:
Seeders:
17
Information:
TlNCQy50bw==
Leechers:
6
File size:
873.1 MiB
Completed:
1120
Info hash:
bed0fe5d0318a61878c5220336bcf6552ed6a71d
![POSTER](http://img.topddl.net/images/ac2ad2791b6c7edd1e9278fe66bef65c.jpg "") ![THUMBNAILS](http://img.topddl.net/images/3e610f1d186cb90dc28b836b352df998.jpg "") ``` eneral Unique ID : 134600212987061037351868795315351486571 (0x65430EDDC23523C8DA0C19E6FE48806B) Complete name : [NSBC] Lupin no Musume E01 [WEBDL] [720p].mkv Format : Matroska Format version : Version 4 File size : 873 MiB Duration : 57 min 24 s Overall bit rate mode : Variable Overall bit rate : 2 127 kb/s Movie name : [NSBC] Lupin no Musume E01 [WEBDL] [720p] Encoded by : NoNe | NSBC Encoded date : UTC 2019-07-11 15:06:15 Writing application : mkvmerge v35.0.0 ('All The Love In The World') 64-bit Writing library : libebml v1.3.9 + libmatroska v1.5.2 Copyright : NSBC Comment : NoNe | NSBC DATE_RECORDED : 2019 Video ID : 1 Format : AVC Format/Info : Advanced Video Codec Format profile : [email protected] Format settings : CABAC / 4 Ref Frames Format settings, CABAC : Yes Format settings, Reference frames : 4 frames Codec ID : V_MPEG4/ISO/AVC Duration : 57 min 24 s Bit rate mode : Variable Bit rate : 1 996 kb/s Maximum bit rate : 6 000 kb/s Width : 1 280 pixels Height : 720 pixels Display aspect ratio : 16:9 Frame rate mode : Constant Frame rate : 29.970 (30000/1001) FPS Color space : YUV Chroma subsampling : 4:2:0 Bit depth : 8 bits Scan type : Progressive Bits/(Pixel*Frame) : 0.072 Stream size : 820 MiB (94%) Title : [NSBC] Default : Yes Forced : No Color range : Limited Color primaries : BT.709 Transfer characteristics : BT.709 Matrix coefficients : BT.709 Audio ID : 2 Format : AAC LC Format/Info : Advanced Audio Codec Low Complexity Codec ID : A_AAC-2 Duration : 57 min 23 s Bit rate : 128 kb/s Channel(s) : 2 channels Channel layout : L R Sampling rate : 48.0 kHz Frame rate : 46.875 FPS (1024 SPF) Compression mode : Lossy Delay relative to video : -67 ms Stream size : 52.6 MiB (6%) Title : [NSBC] Language : Japanese Default : Yes Forced : No ```

File list

  • [NSBC] Lupin no Musume E01 [WEBDL] [720p].mkv (873.1 MiB)