[TheDarkestOne] Radiation House E11 [WEBDL] [1080p] [REPACK]

Category:
Date:
2019-06-19 00:41 UTC
Submitter:
Seeders:
5
Information:
No information.
Leechers:
0
File size:
1.1 GiB
Completed:
505
Info hash:
ef63fd0d7fecaf7bc6970a2c2ff511a3ceda386d
```Format : Matroska Format version : Version 4 / Version 2 File size : 1.11 GiB Duration : 56 min 35 s Overall bit rate : 2 800 kb/s Encoded date : UTC 2019-06-19 00:37:47 Writing application : mkvmerge v34.0.0 ('Sight and Seen') 64-bit Writing library : libebml v1.3.7 + libmatroska v1.5.0 / Lavf58.20.100 Video ID : 1 Format : AVC Format/Info : Advanced Video Codec Format profile : [email protected] Format settings : CABAC / 4 Ref Frames Format settings, CABAC : Yes Format settings, ReFrames : 4 frames Codec ID : V_MPEG4/ISO/AVC Duration : 56 min 35 s Bit rate : 2 606 kb/s Width : 1 920 pixels Height : 1 080 pixels Display aspect ratio : 16:9 Frame rate mode : Constant Frame rate : 24.000 FPS Color space : YUV Chroma subsampling : 4:2:0 Bit depth : 8 bits Scan type : Progressive Bits/(Pixel*Frame) : 0.052 Stream size : 1.03 GiB (93%) Writing library : x264 core 157 r2935 545de2f Encoding settings : cabac=1 / ref=3 / deblock=1:0:0 / analyse=0x1:0x111 / me=hex / subme=7 / psy=1 / psy_rd=1.00:0.00 / mixed_ref=1 / me_range=16 / chroma_me=1 / trellis=1 / 8x8dct=0 / cqm=0 / deadzone=21,11 / fast_pskip=1 / chroma_qp_offset=-2 / threads=6 / lookahead_threads=1 / sliced_threads=0 / nr=0 / decimate=1 / interlaced=0 / bluray_compat=0 / constrained_intra=0 / bframes=3 / b_pyramid=2 / b_adapt=1 / b_bias=0 / direct=1 / weightb=1 / open_gop=0 / weightp=2 / keyint=240 / keyint_min=24 / scenecut=40 / intra_refresh=0 / rc_lookahead=40 / rc=crf / mbtree=1 / crf=22.0 / qcomp=0.60 / qpmin=0 / qpmax=69 / qpstep=4 / vbv_maxrate=20000 / vbv_bufsize=25000 / crf_max=0.0 / nal_hrd=none / filler=0 / ip_ratio=1.40 / aq=1:1.00 Default : Yes Forced : No Color range : Limited Color primaries : BT.709 Transfer characteristics : BT.709 Matrix coefficients : BT.709 Audio ID : 3 Format : MPEG Audio Format version : Version 1 Format profile : Layer 3 Format settings : Joint stereo Codec ID : A_MPEG/L3 Codec ID/Hint : MP3 Duration : 56 min 35 s Bit rate mode : Constant Bit rate : 192 kb/s Channel(s) : 2 channels Sampling rate : 44.1 kHz Frame rate : 38.281 FPS (1152 SPF) Compression mode : Lossy Stream size : 77.7 MiB (7%) Writing library : LAME3.99r Encoding settings : -m j -V 4 -q 3 -lowpass 18.6 -b 192 Default : Yes Forced : No Text ID : 2 Format : ASS Codec ID : S_TEXT/ASS Codec ID/Info : Advanced Sub Station Alpha Duration : 56 min 32 s Bit rate : 108 b/s Count of elements : 889 Compression mode : Lossless Stream size : 44.9 KiB (0%) Language : English Default : Yes Forced : Yes

File list

  • [TheDarkestOne] Radiation House E11 [WEBDL] [1080p] [REPACK].mkv (1.1 GiB)
thank you for this!!