[MemeDrama] Radiation House E10 [WEBDL] [1080p].mkv

Category:
Date:
2019-06-13 02:09 UTC
Submitter:
Anonymous
Seeders:
4
Information:
No information.
Leechers:
2
File size:
1.0 GiB
Completed:
341
Info hash:
4e293528f9569762cb91b25c5ea413b4dc30d669
```Format : Matroska Format version : Version 4 File size : 1.01 GiB Duration : 45 min 59 s Overall bit rate : 3 129 kb/s Encoded date : UTC 2019-06-13 02:07:14 Writing application : mkvmerge v19.0.0 ('Brave Captain') 32-bit Writing library : libebml v1.3.5 + libmatroska v1.4.8 Video ID : 1 Format : AVC Format/Info : Advanced Video Codec Format profile : [email protected] Format settings : CABAC / 4 Ref Frames Format settings, CABAC : Yes Format settings, ReFrames : 4 frames Codec ID : V_MPEG4/ISO/AVC Duration : 45 min 59 s Bit rate : 2 964 kb/s Width : 1 920 pixels Height : 1 080 pixels Display aspect ratio : 16:9 Frame rate mode : Constant Frame rate : 24.000 FPS Color space : YUV Chroma subsampling : 4:2:0 Bit depth : 8 bits Scan type : Progressive Bits/(Pixel*Frame) : 0.060 Stream size : 975 MiB (95%) Writing library : x264 core 152 r2851 ba24899 Encoding settings : cabac=1 / ref=4 / deblock=1:0:0 / analyse=0x3:0x113 / me=hex / subme=8 / psy=1 / psy_rd=1.00:0.00 / mixed_ref=1 / me_range=16 / chroma_me=1 / trellis=2 / 8x8dct=1 / cqm=0 / deadzone=21,11 / fast_pskip=1 / chroma_qp_offset=-2 / threads=10 / lookahead_threads=1 / sliced_threads=0 / nr=0 / decimate=1 / interlaced=0 / bluray_compat=0 / constrained_intra=0 / bframes=0 / weightp=2 / keyint=72 / keyint_min=7 / scenecut=40 / intra_refresh=0 / rc_lookahead=50 / rc=cbr / mbtree=1 / bitrate=2964 / ratetol=1.0 / qcomp=0.90 / qpmin=3 / qpmax=51 / qpstep=8 / vbv_maxrate=2964 / vbv_bufsize=11856 / nal_hrd=none / filler=0 / ip_ratio=1.40 / aq=1:1.00 Default : Yes Forced : No Audio ID : 2 Format : AAC LC Format/Info : Advanced Audio Codec Low Complexity Codec ID : A_AAC-2 Duration : 45 min 59 s Bit rate : 162 kb/s Channel(s) : 2 channels Channel layout : L R Sampling rate : 44.1 kHz Frame rate : 43.066 FPS (1024 SPF) Compression mode : Lossy Delay relative to video : 46 ms Stream size : 53.1 MiB (5%) Default : Yes Forced : No Text #1 ID : 3 Format : S_TEXT/WEBVTT Codec ID : S_TEXT/WEBVTT Duration : 45 min 49 s Bit rate : 65 b/s Count of elements : 656 Stream size : 22.0 KiB (0%) Default : Yes Forced : No Text #2 ID : 4 Format : S_TEXT/WEBVTT Codec ID : S_TEXT/WEBVTT Duration : 45 min 49 s Bit rate : 65 b/s Count of elements : 656 Stream size : 22.1 KiB (0%) Default : No Forced : No ```

File list

  • [MemeDrama] Radiation House E10 [WEBDL] [1080p].mkv (1.0 GiB)