[NSBC] Perfect World 2019 E08 [WEBDL] [1080p]

Category:
Date:
2019-06-12 01:39 UTC
Submitter:
Seeders:
8
Information:
TlNCQy50bw==
Leechers:
0
File size:
1023.4 MiB
Completed:
704
Info hash:
0931ac9bc0ceccdd0fd4d70ae72a548bd763cf64
![POSTER](http://img.topddl.net/images/c695e633f3624ddbc017f8ebe4abfe8d.jpg "") ![Thumbnails](http://img.topddl.net/images/2483553a07564c63292ef2a5fc71cf9e.jpg "") ``` General Unique ID : 159954501646275735822675010028519890273 (0x78561DCF67DCA305ED971499B5391D61) Complete name : [NSBC] Perfect World 2019 E08 [WEBDL] [1080p].mkv Format : Matroska Format version : Version 4 File size : 1 023 MiB Duration : 45 min 53 s Overall bit rate : 3 118 kb/s Movie name : [NSBC] Perfect World 2019 E08 [WEBDL] [1080p] Encoded by : NoNe | NSBC Encoded date : UTC 2019-06-12 01:22:55 Writing application : mkvmerge v34.0.0 ('Sight and Seen') 64-bit Writing library : libebml v1.3.7 + libmatroska v1.5.0 Copyright : NSBC Comment : NoNe | NSBC DATE_RECORDED : 2019 Video ID : 1 Format : AVC Format/Info : Advanced Video Codec Format profile : [email protected] Format settings : CABAC / 4 Ref Frames Format settings, CABAC : Yes Format settings, RefFrames : 4 frames Codec ID : V_MPEG4/ISO/AVC Duration : 45 min 53 s Bit rate : 2 988 kb/s Width : 1 920 pixels Height : 1 080 pixels Display aspect ratio : 16:9 Frame rate mode : Constant Frame rate : 29.970 (30000/1001) FPS Color space : YUV Chroma subsampling : 4:2:0 Bit depth : 8 bits Scan type : Progressive Bits/(Pixel*Frame) : 0.048 Stream size : 981 MiB (96%) Title : [NSBC] Writing library : Zencoder Video Encoding System Default : No Forced : No Color range : Limited Color primaries : BT.709 Transfer characteristics : BT.709 Matrix coefficients : BT.709 Audio ID : 2 Format : AAC LC Format/Info : Advanced Audio Codec Low Complexity Codec ID : A_AAC-2 Duration : 45 min 53 s Bit rate : 128 kb/s Channel(s) : 2 channels Channel layout : L R Sampling rate : 48.0 kHz Frame rate : 46.875 FPS (1024 SPF) Compression mode : Lossy Delay relative to video : -67 ms Stream size : 42.0 MiB (4%) Title : [NSBC] Language : Japanese Default : Yes Forced : No ```

File list

  • [NSBC] Perfect World 2019 E08 [WEBDL] [1080p].mkv (1023.4 MiB)