[NSBC] Shudan Sasen E08 [WEBDL] [1080p]

Category:
Date:
2019-06-09 13:46 UTC
Submitter:
Seeders:
1
Information:
TlNCQy50bw==
Leechers:
1
File size:
680.5 MiB
Completed:
1199
Info hash:
76a83525ded54e844fa9f2846e2e80dd5a6ba597
![POSTER](http://img.topddl.net/images/00ea0584e36577c91380aca1dc1fd30e.png "") ![Thumbnails](http://img.topddl.net/images/5b32161859535b684c945e06dd097879.jpg "") ``` General Unique ID : 313366192666382212083403228677723267018 (0xEBC022269974207E87132E0A02DE1FCA) Complete name : [NSBC] Shudan Sasen E08 [WEBDL] [1080p].mkv Format : Matroska Format version : Version 4 File size : 681 MiB Duration : 46 min 42 s Overall bit rate : 2 037 kb/s Movie name : [NSBC] Shudan Sasen E08 [WEBDL] [1080p] Encoded by : NoNe | NSBC Encoded date : UTC 2019-06-09 13:41:07 Writing application : mkvmerge v34.0.0 ('Sight and Seen') 64-bit Writing library : libebml v1.3.7 + libmatroska v1.5.0 Copyright : NSBC Comment : NoNe | NSBC DATE_RECORDED : 2019 Video ID : 1 Format : AVC Format/Info : Advanced Video Codec Format profile : [email protected] Format settings : CABAC / 4 Ref Frames Format settings, CABAC : Yes Format settings, RefFrames : 4 frames Codec ID : V_MPEG4/ISO/AVC Duration : 46 min 41 s Bit rate : 1 971 kb/s Width : 1 920 pixels Height : 1 080 pixels Display aspect ratio : 16:9 Frame rate mode : Constant Frame rate : 29.970 (30000/1001) FPS Color space : YUV Chroma subsampling : 4:2:0 Bit depth : 8 bits Scan type : Progressive Bits/(Pixel*Frame) : 0.032 Stream size : 658 MiB (97%) Title : [NSBC] Writing library : Zencoder Video Encoding System Default : No Forced : No Color range : Limited Color primaries : BT.709 Transfer characteristics : BT.709 Matrix coefficients : BT.709 Audio ID : 2 Format : AAC LC Format/Info : Advanced Audio Codec Low Complexity Codec ID : A_AAC-2 Duration : 46 min 42 s Bit rate : 64.0 kb/s Channel(s) : 2 channels Channel layout : L R Sampling rate : 48.0 kHz Frame rate : 46.875 FPS (1024 SPF) Compression mode : Lossy Delay relative to video : -67 ms Stream size : 21.4 MiB (3%) Title : [NSBC] Language : Japanese Default : Yes Forced : No ```

File list

  • [NSBC] Shudan Sasen E08 [WEBDL] [1080p].mkv (680.5 MiB)