[NSBC] Kabukicho Bengonin Rinka E08 [WEBDL] [720p]

Category:
Date:
2019-06-09 01:46 UTC
Submitter:
Seeders:
6
Information:
TlNCQy50bw==
Leechers:
0
File size:
516.1 MiB
Completed:
635
Info hash:
115b8e5a567153713bb2471358d6ec4e6f00384b
![POSTER](http://img.topddl.net/images/c3ce19b07569b32fa6768397d0202cb5.jpg "") ![Thumbnails](http://img.topddl.net/images/073c9a63719036c24eba2bb593ded394.jpg "") ``` General Unique ID : 244972325868654169495749011950052146166 (0xB84BF42BD24D43691FF7A8963F5D7BF6) Complete name : [NSBC] Kabukicho Bengonin Rinka E08 [WEBDL] [720p].mkv Format : Matroska Format version : Version 4 File size : 516 MiB Duration : 23 min 4 s Overall bit rate : 3 128 kb/s Movie name : [NSBC] Kabukicho Bengonin Rinka E08 [WEBDL] [720p] Encoded by : NoNe | NSBC Encoded date : UTC 2019-06-09 01:35:37 Writing application : mkvmerge v34.0.0 ('Sight and Seen') 64-bit Writing library : libebml v1.3.7 + libmatroska v1.5.0 Copyright : NSBC Comment : NoNe | NSBC DATE_RECORDED : 2019 Video ID : 1 Format : AVC Format/Info : Advanced Video Codec Format profile : [email protected] Format settings : CABAC / 3 Ref Frames Format settings, CABAC : Yes Format settings, RefFrames : 3 frames Format settings, GOP : M=1, N=30 Codec ID : V_MPEG4/ISO/AVC Duration : 23 min 4 s Bit rate : 2 997 kb/s Width : 1 280 pixels Height : 720 pixels Display aspect ratio : 16:9 Frame rate mode : Constant Frame rate : 29.970 (30000/1001) FPS Color space : YUV Chroma subsampling : 4:2:0 Bit depth : 8 bits Scan type : Progressive Bits/(Pixel*Frame) : 0.109 Stream size : 495 MiB (96%) Title : [NSBC] Writing library : Zencoder Video Encoding System Default : No Forced : No Audio ID : 2 Format : AAC LC Format/Info : Advanced Audio Codec Low Complexity Codec ID : A_AAC-2 Duration : 23 min 4 s Bit rate : 128 kb/s Channel(s) : 2 channels Channel layout : L R Sampling rate : 48.0 kHz Frame rate : 46.875 FPS (1024 SPF) Compression mode : Lossy Stream size : 21.1 MiB (4%) Title : [NSBC] Language : Japanese Default : Yes Forced : No ```

File list

  • [NSBC] Kabukicho Bengonin Rinka E08 [WEBDL] [720p].mkv (516.1 MiB)