[NSBC] Kinou Nani Tabeta?E09 [WEBDL] [720p]

Category:
Date:
2019-06-08 10:29 UTC
Submitter:
Seeders:
4
Information:
TlNCQy50bw==
Leechers:
0
File size:
674.5 MiB
Completed:
1046
Info hash:
126864c58a8015b7e9ac83e226fa612fe47e3deb
![POSTER](http://img.topddl.net/images/ea1dfec5cb1766fc14efefb01a85fd42.jpg "") ``` General Unique ID : 111077554478455257607447036726888149923 (0x5390C242CF4CEC280A57BC1A1774B3A3) Complete name : [NSBC] Kinou Nani Tabeta E09 [WEBDL] [720p].mkv Format : Matroska Format version : Version 4 File size : 674 MiB Duration : 30 min 8 s Overall bit rate : 3 129 kb/s Movie name : [NSBC] Kinou Nani Tabeta?E09 [WEBDL] [720p] Encoded by : NoNe | NSBC Encoded date : UTC 2019-06-08 10:14:34 Writing application : mkvmerge v34.0.0 ('Sight and Seen') 64-bit Writing library : libebml v1.3.7 + libmatroska v1.5.0 Copyright : NSBC Comment : NoNe | NSBC DATE_RECORDED : 2019 Video ID : 1 Format : AVC Format/Info : Advanced Video Codec Format profile : [email protected] Format settings : CABAC / 3 Ref Frames Format settings, CABAC : Yes Format settings, RefFrames : 3 frames Format settings, GOP : M=1, N=30 Codec ID : V_MPEG4/ISO/AVC Duration : 30 min 8 s Bit rate : 2 999 kb/s Width : 1 280 pixels Height : 720 pixels Display aspect ratio : 16:9 Frame rate mode : Constant Frame rate : 29.970 (30000/1001) FPS Color space : YUV Chroma subsampling : 4:2:0 Bit depth : 8 bits Scan type : Progressive Bits/(Pixel*Frame) : 0.109 Stream size : 646 MiB (96%) Title : [NSBC] Writing library : Zencoder Video Encoding System Default : No Forced : No Audio ID : 2 Format : AAC LC Format/Info : Advanced Audio Codec Low Complexity Codec ID : A_AAC-2 Duration : 30 min 8 s Bit rate : 128 kb/s Channel(s) : 2 channels Channel layout : L R Sampling rate : 48.0 kHz Frame rate : 46.875 FPS (1024 SPF) Compression mode : Lossy Stream size : 27.5 MiB (4%) Title : [NSBC] Language : Japanese Default : Yes Forced : No ```

File list

  • [NSBC] Kinou Nani Tabeta E09 [WEBDL] [720p].mkv (674.5 MiB)