[NSBC] Kakafukaka E07 [WEBDL] [1080p]

Category:
Date:
2019-06-07 03:41 UTC
Submitter:
Seeders:
3
Information:
TlNCQy50bw==
Leechers:
0
File size:
366.3 MiB
Completed:
615
Info hash:
a4ce0c357774a696c3b6c1d95bd0cf906bbee799
![POSTER](http://img.topddl.net/images/b3f11f51d4e434bebbca0a45b0931aab.jpg "") ![Thumbnails](http://img.topddl.net/images/b6b8378e696f031c996742ece6374e74.jpg "") ``` General Unique ID : 331744822172088145792582097199448565834 (0xF993BA8B89731C025DDC76B74BE1A84A) Complete name : [NSBC] Kakafukaka E07 [WEBDL] [1080p].mkv Format : Matroska Format version : Version 4 File size : 366 MiB Duration : 24 min 5 s Overall bit rate : 2 125 kb/s Movie name : [NSBC] Kakafukaka E07 [WEBDL] [1080p] Encoded by : NoNe | NSBC Encoded date : UTC 2019-06-07 03:27:34 Writing application : mkvmerge v34.0.0 ('Sight and Seen') 64-bit Writing library : libebml v1.3.7 + libmatroska v1.5.0 / Lavf57.83.100 Copyright : NSBC Comment : NoNe | NSBC DATE_RECORDED : 2019 Video ID : 1 Format : AVC Format/Info : Advanced Video Codec Format profile : [email protected] Format settings : CABAC / 3 Ref Frames Format settings, CABAC : Yes Format settings, RefFrames : 3 frames Format settings, GOP : M=1, N=30 Codec ID : V_MPEG4/ISO/AVC Duration : 24 min 5 s Bit rate : 1 994 kb/s Width : 1 920 pixels Height : 1 080 pixels Display aspect ratio : 16:9 Frame rate mode : Constant Frame rate : 29.970 (30000/1001) FPS Color space : YUV Chroma subsampling : 4:2:0 Bit depth : 8 bits Scan type : Progressive Bits/(Pixel*Frame) : 0.032 Stream size : 344 MiB (94%) Title : [NSBC] Writing library : Zencoder Video Encoding System Default : Yes Forced : No VARIANT_BITRATE : 0 Audio ID : 2 Format : AAC LC Format/Info : Advanced Audio Codec Low Complexity Codec ID : A_AAC-2 Duration : 24 min 5 s Bit rate : 128 kb/s Channel(s) : 2 channels Channel layout : L R Sampling rate : 48.0 kHz Frame rate : 46.875 FPS (1024 SPF) Compression mode : Lossy Stream size : 22.1 MiB (6%) Title : [NSBC] Language : Japanese Default : Yes Forced : No VARIANT_BITRATE : 0 ```

File list

  • [NSBC] Kakafukaka E07 [WEBDL] [1080p].mkv (366.3 MiB)