[NSBC] Iyasaretai Otoko E09 [WEBDL] [720p]

Category:
Date:
2019-06-07 03:41 UTC
Submitter:
Seeders:
2
Information:
TlNCQy50bw==
Leechers:
0
File size:
569.7 MiB
Completed:
593
Info hash:
a10d93add59c75254e10ccbffaa1ebe70081a31a
![poster](http://img.topddl.net/images/2f3a1d44528bcc95b3ea1e5c3ba3b605.jpg "") ![Thumbnail](http://img.topddl.net/images/69efad26d20e57755ec055505e0860a7.jpg "") ``` General Unique ID : 142109413274879085536938884527989871406 (0x6AE9470657D9D837C8A18781BB72532E) Complete name : [NSBC] Iyasaretai Otoko E09 [WEBDL] [720p].mkv Format : Matroska Format version : Version 4 File size : 570 MiB Duration : 25 min 34 s Overall bit rate : 3 115 kb/s Movie name : [NSBC] Iyasaretai Otoko E09 [WEBDL] [720p] Encoded by : NoNe | NSBC Encoded date : UTC 2019-06-07 03:26:55 Writing application : mkvmerge v34.0.0 ('Sight and Seen') 64-bit Writing library : libebml v1.3.7 + libmatroska v1.5.0 / Lavf57.83.100 Copyright : NSBC Comment : NoNe | NSBC DATE_RECORDED : 2019 Video ID : 1 Format : AVC Format/Info : Advanced Video Codec Format profile : [email protected] Format settings : CABAC / 3 Ref Frames Format settings, CABAC : Yes Format settings, RefFrames : 3 frames Format settings, GOP : M=1, N=30 Codec ID : V_MPEG4/ISO/AVC Duration : 25 min 34 s Bit rate : 2 985 kb/s Width : 1 280 pixels Height : 720 pixels Display aspect ratio : 16:9 Frame rate mode : Constant Frame rate : 29.970 (30000/1001) FPS Color space : YUV Chroma subsampling : 4:2:0 Bit depth : 8 bits Scan type : Progressive Bits/(Pixel*Frame) : 0.108 Stream size : 546 MiB (96%) Title : [NSBC] Writing library : Zencoder Video Encoding System Default : Yes Forced : No VARIANT_BITRATE : 0 Audio ID : 2 Format : AAC LC Format/Info : Advanced Audio Codec Low Complexity Codec ID : A_AAC-2 Duration : 25 min 34 s Bit rate : 128 kb/s Channel(s) : 2 channels Channel layout : L R Sampling rate : 48.0 kHz Frame rate : 46.875 FPS (1024 SPF) Compression mode : Lossy Stream size : 23.4 MiB (4%) Title : [NSBC] Language : Japanese Default : Yes Forced : No VARIANT_BITRATE : 0 ```

File list

  • [NSBC] Iyasaretai Otoko E09 [WEBDL] [720p].mkv (569.7 MiB)