[NSBC] Hakui no Senshi E07 [WEBDL] [1080p]

Category:
Date:
2019-05-30 00:59 UTC
Submitter:
Seeders:
4
Information:
TlNCQy50bw==
Leechers:
3
File size:
1.1 GiB
Completed:
762
Info hash:
09f8eed395ea43a22c239053b0fde85f4b48a1ea
![POSTER](http://img.topddl.net/images/76936e74edfd1dab488dc1ca56c95883.png "") ![Thumbnails](http://img.topddl.net/images/31602980a2399517792656e2a98daeb0.jpg "") ``` General Unique ID : 13187774103976261894401587979155672512 (0x9EBDF76AE220A3D39DBB514DBFC0DC0) Complete name : [NSBC] Hakui no Senshi E07 [WEBDL] [1080p].mkv Format : Matroska Format version : Version 4 File size : 1.13 GiB Duration : 51 min 24 s Overall bit rate : 3 157 kb/s Movie name : [NSBC] Hakui no Senshi E07 [WEBDL] [1080p] Encoded by : NoNe | NSBC Encoded date : UTC 2019-05-30 00:54:21 Writing application : mkvmerge v33.1.0 ('Primrose') 64-bit Writing library : libebml v1.3.7 + libmatroska v1.5.0 / Lavf57.83.100 Copyright : NSBC Comment : NoNe | NSBC DATE_RECORDED : 2019 Video ID : 1 Format : AVC Format/Info : Advanced Video Codec Format profile : [email protected] Format settings : CABAC / 4 Ref Frames Format settings, CABAC : Yes Format settings, RefFrames : 4 frames Codec ID : V_MPEG4/ISO/AVC Duration : 51 min 24 s Bit rate : 2 963 kb/s Width : 1 920 pixels Height : 1 080 pixels Display aspect ratio : 16:9 Frame rate mode : Constant Frame rate : 29.970 (30000/1001) FPS Color space : YUV Chroma subsampling : 4:2:0 Bit depth : 8 bits Scan type : Progressive Bits/(Pixel*Frame) : 0.048 Stream size : 1.06 GiB (94%) Title : [NSBC] Writing library : Zencoder Video Encoding System Default : Yes Forced : No Color range : Limited Color primaries : BT.709 Transfer characteristics : BT.709 Matrix coefficients : BT.709 VARIANT_BITRATE : 0 Audio ID : 2 Format : AAC LC Format/Info : Advanced Audio Codec Low Complexity Codec ID : A_AAC-2 Duration : 51 min 24 s Bit rate : 192 kb/s Channel(s) : 2 channels Channel layout : L R Sampling rate : 48.0 kHz Frame rate : 46.875 FPS (1024 SPF) Compression mode : Lossy Stream size : 70.6 MiB (6%) Title : [NSBC] Language : Japanese Default : Yes Forced : No VARIANT_BITRATE : 0 ```

File list

  • [NSBC] Hakui no Senshi E07 [WEBDL] [1080p].mkv (1.1 GiB)