[NSBC] Watashi, Teiji de Kaerimasu E07 [WEBDL] [1080p]

Category:
Date:
2019-05-29 00:45 UTC
Submitter:
Seeders:
12
Information:
TlNCQy50bw==
Leechers:
0
File size:
721.4 MiB
Completed:
1119
Info hash:
3dd4024f9e2b34ad751e7a8c71cca0ca036e768e
![POSTER](http://img.topddl.net/images/1ac62d16a07a3294013f8d9f215a113e.png "") ![Thumbnails](http://img.topddl.net/images/94a6762c4482946beee785232c9d59c4.jpg "") ``` General Unique ID : 135448255010648270560145879079239473961 (0x65E66290EED2BC8AC7A01F1539BADB29) Complete name : [NSBC] Watashi, Teiji de Kaerimasu E07 [WEBDL] [1080p].mkv Format : Matroska Format version : Version 4 File size : 721 MiB Duration : 48 min 4 s Overall bit rate : 2 098 kb/s Movie name : [NSBC] Watashi, Teiji de Kaerimasu E07 [WEBDL] [1080p] Encoded by : NoNe | NSBC Encoded date : UTC 2019-05-29 00:33:20 Writing application : mkvmerge v33.1.0 ('Primrose') 64-bit Writing library : libebml v1.3.7 + libmatroska v1.5.0 / Lavf57.83.100 Copyright : NSBC Comment : NoNe | NSBC DATE_RECORDED : 2019 Video ID : 1 Format : AVC Format/Info : Advanced Video Codec Format profile : [email protected] Format settings : CABAC / 4 Ref Frames Format settings, CABAC : Yes Format settings, RefFrames : 4 frames Codec ID : V_MPEG4/ISO/AVC Duration : 48 min 3 s Bit rate : 1 904 kb/s Width : 1 920 pixels Height : 1 080 pixels Display aspect ratio : 16:9 Frame rate mode : Constant Frame rate : 29.970 (30000/1001) FPS Color space : YUV Chroma subsampling : 4:2:0 Bit depth : 8 bits Scan type : Progressive Bits/(Pixel*Frame) : 0.031 Stream size : 655 MiB (91%) Title : [NSBC] Writing library : Zencoder Video Encoding System Default : Yes Forced : No Color range : Limited Color primaries : BT.709 Transfer characteristics : BT.709 Matrix coefficients : BT.709 VARIANT_BITRATE : 0 Audio ID : 2 Format : AAC LC Format/Info : Advanced Audio Codec Low Complexity Codec ID : A_AAC-2 Duration : 48 min 4 s Bit rate : 192 kb/s Channel(s) : 2 channels Channel layout : L R Sampling rate : 48.0 kHz Frame rate : 46.875 FPS (1024 SPF) Compression mode : Lossy Stream size : 65.9 MiB (9%) Title : [NSBC] Language : Japanese Default : Yes Forced : No VARIANT_BITRATE : 0 ```

File list

  • [NSBC] Watashi, Teiji de Kaerimasu E07 [WEBDL] [1080p].mkv (721.4 MiB)