[NSBC] Shiroi Kyoto 2019 E05 [WEBDL] [1080p]

Category:
Date:
2019-05-26 20:04 UTC
Submitter:
Seeders:
3
Information:
TlNCQy50bw==
Leechers:
0
File size:
1.9 GiB
Completed:
859
Info hash:
0d2ef9a9e33ca4dafdec8e1ccbbf993c76b531ef
![POSTER](http://img.topddl.net/images/3a1ae1058ccfa5ed46a09acd502ea53d.jpg "") ![Thumbnails](http://img.topddl.net/images/a1b62166ef09910af8a9c57c2e0c7cdf.jpg "") ``` General Unique ID : 75672375464846719104531832919405959272 (0x38EDF829C0329C88036B78B3830D1868) Complete name : [NSBC] Shiroi Kyoto 2019 E05 [WEBDL] [1080p].mkv Format : Matroska Format version : Version 4 File size : 1.91 GiB Duration : 1 h 49 min Overall bit rate : 2 495 kb/s Movie name : [NSBC] Shiroi Kyoto 2019 E05 [WEBDL] [1080p] Encoded date : UTC 2019-05-26 19:41:19 Writing application : mkvmerge v33.1.0 ('Primrose') 64-bit Writing library : libebml v1.3.7 + libmatroska v1.5.0 / Lavf57.83.100 Copyright : NSBC Comment : NoNe | NSBC DATE_RECORDED : 2019 ENCODEBY : NoNe | NSBC Video ID : 1 Format : AVC Format/Info : Advanced Video Codec Format profile : [email protected] Format settings : CABAC / 4 Ref Frames Format settings, CABAC : Yes Format settings, RefFrames : 4 frames Codec ID : V_MPEG4/ISO/AVC Duration : 1 h 49 min Bit rate : 2 300 kb/s Width : 1 920 pixels Height : 1 080 pixels Display aspect ratio : 16:9 Frame rate mode : Constant Frame rate : 29.970 (30000/1001) FPS Color space : YUV Chroma subsampling : 4:2:0 Bit depth : 8 bits Scan type : Progressive Bits/(Pixel*Frame) : 0.037 Stream size : 1.76 GiB (92%) Title : [NSBC] Writing library : Zencoder Video Encoding System Default : Yes Forced : No Color range : Limited Matrix coefficients : BT.709 VARIANT_BITRATE : 0 Audio ID : 2 Format : AAC LC Format/Info : Advanced Audio Codec Low Complexity Codec ID : A_AAC-2 Duration : 1 h 49 min Bit rate : 192 kb/s Channel(s) : 2 channels Channel layout : L R Sampling rate : 48.0 kHz Frame rate : 46.875 FPS (1024 SPF) Compression mode : Lossy Stream size : 151 MiB (8%) Title : [NSBC] Language : Japanese Default : Yes Forced : No VARIANT_BITRATE : 0 ```

File list

  • [NSBC] Shiroi Kyoto 2019 E05 [WEBDL] [1080p].mkv (1.9 GiB)