[NSBC] In Hand E07 [WEBDL] [1080p]

Category:
Date:
2019-05-24 19:12 UTC
Submitter:
Seeders:
9
Information:
TlNCQy50bw==
Leechers:
2
File size:
873.3 MiB
Completed:
1115
Info hash:
8ad272e42b0c971de21623435da7167374436ecd
![POSTER](http://img.topddl.net/images/1a977c6761c053cff807ab2cfe074afc.jpg "") ![Thumbnails](http://img.topddl.net/images/f8ed6b104eeb889b925d77400587117d.jpg "") ``` General Unique ID : 237253292315109366505689263397139951830 (0xB27D526F13EAB3013E4340B3E938B0D6) Complete name : [NSBC] In Hand E07 [WEBDL] [1080p].mkv Format : Matroska Format version : Version 4 File size : 873 MiB Duration : 46 min 2 s Overall bit rate : 2 652 kb/s Movie name : [NSBC] In Hand E07 [WEBDL] [1080p] Encoded by : NoNe | NSBC Encoded date : UTC 2019-05-24 19:04:43 Writing application : mkvmerge v33.1.0 ('Primrose') 64-bit Writing library : libebml v1.3.7 + libmatroska v1.5.0 / Lavf57.83.100 Copyright : NSBC Comment : NoNe | NSBC DATE_RECORDED : 2019 Video ID : 1 Format : AVC Format/Info : Advanced Video Codec Format profile : [email protected] Format settings : CABAC / 4 Ref Frames Format settings, CABAC : Yes Format settings, RefFrames : 4 frames Codec ID : V_MPEG4/ISO/AVC Duration : 46 min 1 s Bit rate : 2 458 kb/s Width : 1 920 pixels Height : 1 080 pixels Display aspect ratio : 16:9 Frame rate mode : Constant Frame rate : 29.970 (30000/1001) FPS Color space : YUV Chroma subsampling : 4:2:0 Bit depth : 8 bits Scan type : Progressive Bits/(Pixel*Frame) : 0.040 Stream size : 809 MiB (93%) Title : [NSBC] Writing library : Zencoder Video Encoding System Default : Yes Forced : No Color range : Limited Color primaries : BT.709 Transfer characteristics : BT.709 Matrix coefficients : BT.709 VARIANT_BITRATE : 0 Audio ID : 2 Format : AAC LC Format/Info : Advanced Audio Codec Low Complexity Codec ID : A_AAC-2 Duration : 46 min 2 s Bit rate : 192 kb/s Channel(s) : 2 channels Channel layout : L R Sampling rate : 48.0 kHz Frame rate : 46.875 FPS (1024 SPF) Compression mode : Lossy Stream size : 63.1 MiB (7%) Title : [NSBC] Language : Japanese Default : Yes Forced : No VARIANT_BITRATE : 0 ```

File list

  • [NSBC] In Hand E07 [WEBDL] [1080p].mkv (873.3 MiB)