[NSBC] Minami no Teiou ZERO E05 [WEBDL] [1080p]

Category:
Date:
2019-05-23 19:24 UTC
Submitter:
Seeders:
2
Information:
TlNCQy50bw==
Leechers:
1
File size:
496.9 MiB
Completed:
366
Info hash:
1a3af240eda755e723cfa25cfdbdd31c7fc839a9
![POSTER](http://img.topddl.net/images/ee4c09c6c2eb607b65b2c915ed8f6ddf.jpg "") ![Thumbnails](http://img.topddl.net/images/8211c8839f2c93654d949c16a8fbb033.jpg "") ``` General Unique ID : 20168770057847702748248202443407001608 (0xF2C5D2347CBA04CD2367E8011988808) Complete name : [NSBC] Minami no Teiou ZERO E05 [WEBDL] [1080p].mkv Format : Matroska Format version : Version 4 File size : 497 MiB Duration : 23 min 59 s Overall bit rate : 2 897 kb/s Movie name : [NSBC] Minami no Teiou ZERO E05 [WEBDL] [1080p] Encoded by : NoNe | NSBC Encoded date : UTC 2019-05-23 19:03:23 Writing application : mkvmerge v33.1.0 ('Primrose') 64-bit Writing library : libebml v1.3.7 + libmatroska v1.5.0 / Lavf57.83.100 Copyright : NSBC Comment : NoNe | NSBC DATE_RECORDED : 2019 Video ID : 1 Format : AVC Format/Info : Advanced Video Codec Format profile : [email protected] Format settings : CABAC / 4 Ref Frames Format settings, CABAC : Yes Format settings, RefFrames : 4 frames Codec ID : V_MPEG4/ISO/AVC Duration : 23 min 59 s Bit rate : 2 766 kb/s Width : 1 920 pixels Height : 1 080 pixels Display aspect ratio : 16:9 Frame rate mode : Constant Frame rate : 29.970 (30000/1001) FPS Color space : YUV Chroma subsampling : 4:2:0 Bit depth : 8 bits Scan type : Progressive Bits/(Pixel*Frame) : 0.045 Stream size : 475 MiB (95%) Title : [NSBC] Writing library : Zencoder Video Encoding System Default : Yes Forced : No Color range : Limited Color primaries : BT.709 Transfer characteristics : BT.709 Matrix coefficients : BT.709 VARIANT_BITRATE : 0 Audio ID : 2 Format : AAC LC Format/Info : Advanced Audio Codec Low Complexity Codec ID : A_AAC-2 Duration : 23 min 59 s Bit rate : 128 kb/s Channel(s) : 2 channels Channel layout : L R Sampling rate : 48.0 kHz Frame rate : 46.875 FPS (1024 SPF) Compression mode : Lossy Stream size : 21.9 MiB (4%) Title : [NSBC] Language : Japanese Default : Yes Forced : No VARIANT_BITRATE : 0 ```

File list

  • [NSBC] Minami no Teiou ZERO E05 [WEBDL] [1080p].mkv (496.9 MiB)