[NSBC] Kinou Nani Tabeta?E07 [WEBDL] [720p]

Category:
Date:
2019-05-18 02:04 UTC
Submitter:
Seeders:
4
Information:
TlNCQy50bw==
Leechers:
1
File size:
674.8 MiB
Completed:
1152
Info hash:
f681e18f5634786c6639aa3e9e134a079c46c763
![POSTER](http://img.topddl.net/images/ea1dfec5cb1766fc14efefb01a85fd42.jpg "") ``` General Unique ID : 328121103044510437448362748175265674299 (0xF6D9D365EABD41F0E2B3F40D75C1B43B) Complete name : [NSBC] Kinou Nani Tabeta E07 [WEBDL] [720p].mkv Format : Matroska Format version : Version 4 File size : 675 MiB Duration : 30 min 8 s Overall bit rate : 3 130 kb/s Movie name : [NSBC] Kinou Nani Tabeta E07 [WEBDL] [720p] Encoded by : NoNe | NSBC Encoded date : UTC 2019-05-18 01:50:24 Writing application : mkvmerge v33.1.0 ('Primrose') 64-bit Writing library : libebml v1.3.7 + libmatroska v1.5.0 Copyright : NSBC Comment : NoNe | NSBC DATE_RECORDED : 2019 Video ID : 1 Format : AVC Format/Info : Advanced Video Codec Format profile : [email protected] Format settings : CABAC / 4 Ref Frames Format settings, CABAC : Yes Format settings, RefFrames : 4 frames Codec ID : V_MPEG4/ISO/AVC Duration : 30 min 8 s Bit rate : 3 000 kb/s Width : 1 280 pixels Height : 720 pixels Display aspect ratio : 16:9 Frame rate mode : Constant Frame rate : 30.000 FPS Color space : YUV Chroma subsampling : 4:2:0 Bit depth : 8 bits Scan type : Progressive Bits/(Pixel*Frame) : 0.109 Stream size : 647 MiB (96%) Title : [NSBC] Writing library : Zencoder Video Encoding System Default : Yes Forced : No VARIANT_BITRATE : 0 Audio ID : 2 Format : AAC LC Format/Info : Advanced Audio Codec Low Complexity Codec ID : A_AAC-2 Duration : 30 min 8 s Bit rate : 128 kb/s Channel(s) : 2 channels Channel layout : L R Sampling rate : 48.0 kHz Frame rate : 46.875 FPS (1024 SPF) Compression mode : Lossy Delay relative to video : -109 ms Stream size : 27.5 MiB (4%) Title : [NSBC] Language : Japanese Default : Yes Forced : No VARIANT_BITRATE : 0 ```

File list

  • [NSBC] Kinou Nani Tabeta E07 [WEBDL] [720p].mkv (674.8 MiB)
Thank you for this! Really like this show.